收藏
回答

最近才出现的直播播放出现电流声,7.0.18ios必现

框架类型 问题类型 API/组件名称 终端类型 微信版本 基础库版本
小程序 Bug live-player 微信iOS客户端 7.0.18 2.14.0

openID omVy15BQl09Pdds1GWxEeuPBtIO4

设备品牌 iPhone

设备型号 iPhone X (GSM+CDMA)<iPhone10,3>

客户端版本 7.0.18

基础库版本 2.14.0

系统类型 iOS 13.5.1

就是有点像是解码失败的那种感觉


7.0.18 微信 必现


小程序id: wx008ec2f805121321 必现




补充一下:竞品的不会,我们拉流回来发现是音频编码格式不一样,一个是aac-lc 一个是heaac格式,麻烦关注一下这个点

竞品的是: aac-lc 48k

  Metadata:

    copyright       : firehood

  Duration: N/A, start: 20510.585000, bitrate: N/A

    Stream #0:0: Audio: aac (LC), 48000 Hz, mono, fltp


我们的是 heaac 44100

Duration: 00:00:00.00, start: 446825.534000, bitrate: N/A

    Stream #0:0: Audio: aac (HE-AACv2), 44100 Hz, stereo, fltp

    Stream #0:1: Video: h264 (High), yuv420p(progressive), 544x960 [SAR 1:1 DAR 17:30], 24 fps, 24 tbr, 1k tbn, 48 tbc

446830.79 A-V: -0.000 fd=  11 aq=    5KB vq=  227KB sq=    0B f=0/0



最后一次编辑于  11-08
回答关注问题邀请回答
收藏

2 个回答

登录 后发表内容
问题标签